<?xml  version="1.0" encoding="UTF-8"?>
<!DOCTYPE svg PUBLIC "-//W3C//DTD SVG 1.0//EN" "http://www.w3.org/TR/2001/REC-SVG-20010904/DTD/svg10.dtd" >
<svg xmlns="http://www.w3.org/2000/svg" >
<metadata>
<version>1.0</version>
<id><![CDATA[MandS London W01 Bold]]></id>
<vendor>Monotype Imaging Inc.</vendor>
<credits>
<name>Fonts.com WebFonts</name>
<URL>http://webfonts.fonts.com</URL>
<role>Home of the Web fonts</role>
</credits>
<license>
<URL>http://webfonts.fonts.com/Legal</URL>
</license>
<copyright><![CDATA[Copyright (c) 2014 Marks and Spencer plc]]></copyright>
<trademark></trademark>
<licensee>
<name></name>
</licensee>
</metadata>
<defs >
<font horiz-adv-x="544" id="0c6f1c4f-9de0-470d-b96f-6a9173f96156">
<font-face font-family="MandS London W01 Bold" panose-1="2 11 7 3 2 2 3 2 2 4" ascent="999" descent="-314" units-per-em="1000" alphabetic="0">
</font-face>
<missing-glyph horiz-adv-x="600" />

<glyph unicode="&#xA;" />
<glyph unicode="&#xD;" horiz-adv-x="390" />
<glyph unicode=" " horiz-adv-x="390" />
<glyph unicode="!" horiz-adv-x="243" d="M72 209L59 700H184L171 209H72ZM152 140T174 119T197 66Q197 36 175 13T121 -10Q91 -10 68 13T45 66Q45 96 68 118T121 140Q152 140 174 119Z"  />
<glyph unicode="&quot;" horiz-adv-x="346" d="M45 515L35 700H150L140 515H45ZM206 515L196 700H311L301 515H206Z"  />
<glyph unicode="#" horiz-adv-x="567" d="M443 290H522L494 186H413L361 0H238L290 186H191L139 0H16L68 186H-7L21 290H98L125 386H49L78 490H154L205 670H328L277 490H376L427 670H550L499 490H579L551 386H470L443 290ZM248 386L221 290H320L347 386H248Z"  />
<glyph unicode="$" horiz-adv-x="580" d="M540 109T484 52T324 -13V-86H276V-13Q195 -9 132 29T35 137L142 198Q164 153 196 129T276 99V283Q165 317 116 364T67 490Q67 575 123 624T276 678V730H324V677Q394 670 445 636T519 545L413 492Q391 552 324 565V395L334 392Q438 359 489 315T540 195Q540 109 484 52ZM195 462T213 445T276 411V568Q237 565 216 545T195 492Q195 462 213 445ZM367 102T390 125T413 184Q413 216 392 233T324 268V98Q367 102 390 125Z"  />
<glyph unicode="%" horiz-adv-x="778" d="M258 678T296 636T335 517Q335 440 297 399T188 358Q117 358 79 399T40 517Q40 595 78 636T188 678Q258 678 296 636ZM70 0L575 670H708L203 0H70ZM160 598T146 578T132 518Q132 479 146 459T188 438Q216 438 230 458T244 518Q244 557 230 577T188 598Q160 598 146 578ZM661 313T699 271T738 152Q738 75 700 34T591 -7Q520 -7 482 34T443 152Q443 230 481 271T591 313Q661 313 699 271ZM562 233T548 213T534 153Q534 114 548 94T590 73Q618 73 632 93T646 153Q646 192 632 212T590 233Q562 233 548 213Z"  />
<glyph unicode="&amp;" horiz-adv-x="655" d="M623 75L548 0L481 76Q441 34 388 10T275 -14Q162 -14 101 38T39 184Q39 242 76 297T189 388Q146 428 126 465T105 541Q105 616 155 661T292 706Q378 706 431 662T484 546Q484 493 450 450T356 369L466 250L531 356L625 300L541 165L623 75ZM267 608T250 589T232 537Q232 510 245 489T289 436Q324 457 342 480T361 538Q361 570 344 589T296 608Q267 608 250 589ZM317 88T346 105T406 159L262 315Q211 283 190 253T169 185Q169 139 198 114T279 88Q317 88 346 105Z"  />
<glyph unicode="&apos;" horiz-adv-x="185" d="M45 515L35 700H150L140 515H45Z"  />
<glyph unicode="(" horiz-adv-x="332" d="M243 582T210 486T176 265Q176 140 209 44T316 -145L235 -220Q140 -120 93 -5T45 265Q45 420 92 535T235 750L316 675Q243 582 210 486Z"  />
<glyph unicode=")" horiz-adv-x="332" d="M192 650T239 535T287 265Q287 110 240 -5T97 -220L16 -145Q89 -52 122 44T156 265Q156 390 123 486T16 675L97 750Q192 650 239 535Z"  />
<glyph unicode="*" horiz-adv-x="562" d="M436 612L458 544L327 507L413 404L355 361L279 473L205 361L147 402L230 507L101 544L122 612L248 563L242 700H315L308 563L436 612Z"  />
<glyph unicode="+" horiz-adv-x="500" d="M302 209V66H198V209H55V313H198V456H302V313H445V209H302Z"  />
<glyph unicode="&#x2c;" horiz-adv-x="205" d="M128 133T154 96T181 5Q181 -61 147 -108T40 -199L11 -150Q61 -121 82 -94T104 -35Q104 -16 97 -5T71 11Q47 18 35 32T22 72Q22 98 39 115T83 133Q128 133 154 96Z"  />
<glyph unicode="-" horiz-adv-x="380" d="M35 209V313H345V209H35Z"  />
<glyph unicode="." horiz-adv-x="203" d="M132 140T154 119T177 66Q177 36 155 13T101 -10Q71 -10 48 13T25 66Q25 96 48 118T101 140Q132 140 154 119Z"  />
<glyph unicode="/" horiz-adv-x="403" d="M-30 -163L280 730H403L93 -163H-30Z"  />
<glyph unicode="0" horiz-adv-x="600" d="M431 678T500 588T569 332Q569 166 500 78T300 -11Q169 -11 100 78T30 332Q30 497 99 587T300 678Q431 678 500 588ZM233 558T198 499T162 333Q162 225 197 167T300 109Q367 109 402 167T437 333Q437 441 402 499T300 558Q233 558 198 499Z"  />
<glyph unicode="1" horiz-adv-x="580" d="M366 0H236V549H121V670H366V0Z"  />
<glyph unicode="2" horiz-adv-x="600" d="M522 0H67V83L178 200Q197 220 241 266T309 340Q347 384 362 413T378 473Q378 511 349 536T270 561Q234 561 201 546T134 492L64 580Q140 678 276 678Q347 678 400 654T481 588T510 493Q510 445 487 399T406 288Q363 240 236 111H522V0Z"  />
<glyph unicode="3" horiz-adv-x="600" d="M440 327T476 283T512 179Q512 128 485 85T401 16T258 -11Q132 -11 47 56L93 155Q170 95 258 95Q317 95 348 121T380 188Q380 234 339 262T228 291V397Q290 397 327 422T364 489Q364 525 337 549T264 573Q222 573 188 556T120 501L53 585Q91 631 146 654T270 678Q338 678 389 656T468 593T496 502Q496 447 464 407T376 347Q440 327 476 283Z"  />
<glyph unicode="4" horiz-adv-x="600" d="M484 139V0H362V139H23V227L333 670H484V239L576 230V139H484ZM362 555L142 240H362V555Z"  />
<glyph unicode="5" horiz-adv-x="600" d="M377 423T429 397T509 323T537 213Q537 146 504 96T411 17T269 -11Q215 -11 162 4T64 55L105 155Q179 95 265 95Q332 95 369 127T407 213Q407 267 373 297T277 328Q239 328 213 317T157 276L91 320V670H493V550H217V407Q254 423 307 423Q377 423 429 397Z"  />
<glyph unicode="6" horiz-adv-x="600" d="M402 430T453 403T532 329T561 220Q561 154 531 102T445 19T318 -11Q194 -11 123 68T51 303Q51 418 88 503T195 633T359 678Q401 678 442 669T515 641L481 539Q425 573 361 573Q278 573 231 516T177 349Q201 387 243 408T336 430Q402 430 453 403ZM360 90T394 125T428 215Q428 269 396 301T309 334Q258 334 223 303T188 216Q188 163 222 127T310 90Q360 90 394 125Z"  />
<glyph unicode="7" horiz-adv-x="600" d="M519 565L272 0H131L371 549H60V670H519V565Z"  />
<glyph unicode="8" horiz-adv-x="600" d="M477 339T512 294T548 187Q548 128 517 83T430 14T301 -11Q228 -11 172 12T85 77T53 172Q53 226 88 269T190 337Q136 357 104 400T72 495Q72 547 101 588T182 654T301 678Q367 678 419 656T500 594T529 508Q529 460 498 421T411 359Q477 339 512 294ZM259 588T230 562T201 497Q201 462 226 435T294 395Q342 405 371 432T400 499Q400 537 373 562T302 588Q259 588 230 562ZM352 80T384 108T416 183Q416 225 388 255T309 300Q253 289 219 258T185 181Q185 136 216 108T300 80Q352 80 384 108Z"  />
<glyph unicode="9" horiz-adv-x="600" d="M409 678T479 598T550 359Q550 245 513 162T406 34T242 -11Q199 -11 158 -1T88 29L124 129Q178 95 245 95Q330 95 378 155T432 330Q408 287 362 262T260 237Q196 237 146 264T68 339T40 450Q40 515 71 567T158 648T287 678Q409 678 479 598ZM341 333T376 363T412 449Q412 502 378 539T292 577Q241 577 207 542T172 452Q172 399 204 366T290 333Q341 333 376 363Z"  />
<glyph unicode=":" horiz-adv-x="203" d="M132 140T154 119T177 66Q177 36 155 13T101 -10Q71 -10 48 13T25 66Q25 96 48 118T101 140Q132 140 154 119ZM132 554T154 533T177 480Q177 450 155 427T101 404Q71 404 48 427T25 480Q25 510 48 532T101 554Q132 554 154 533Z"  />
<glyph unicode=";" horiz-adv-x="209" d="M132 133T158 96T185 5Q185 -61 151 -108T44 -199L15 -150Q65 -121 86 -94T108 -35Q108 -16 101 -5T75 11Q51 18 39 32T26 72Q26 98 43 115T87 133Q132 133 158 96ZM129 554T151 533T174 480Q174 450 152 427T98 404Q68 404 45 427T22 480Q22 510 45 532T98 554Q129 554 151 533Z"  />
<glyph unicode="&lt;" horiz-adv-x="500" d="M177 261L440 167V61L60 217V306L440 461V355L177 261Z"  />
<glyph unicode="=" horiz-adv-x="500" d="M55 303V407H445V303H55ZM55 115V219H445V115H55Z"  />
<glyph unicode="&gt;" horiz-adv-x="500" d="M440 217L60 61V167L323 261L60 355V461L440 306V217Z"  />
<glyph unicode="?" horiz-adv-x="464" d="M321 700T378 654T436 525Q436 467 411 430T340 351Q304 319 286 294T268 236V209H159V238Q159 276 170 303T196 349T239 392Q274 424 290 448T307 512Q307 552 285 574T225 596Q193 596 171 581T131 531L19 582Q54 641 106 670T232 700Q321 700 378 654ZM247 140T269 119T292 66Q292 36 270 13T216 -10Q186 -10 163 13T140 66Q140 96 163 118T216 140Q247 140 269 119Z"  />
<glyph unicode="@" horiz-adv-x="928" d="M660 190Q660 165 670 154T701 142Q740 142 767 186T794 310Q794 397 758 467T648 579T470 621Q368 621 293 581T176 462T134 270Q134 164 176 88T294 -28T471 -68Q534 -68 582 -56T672 -20L710 -94Q612 -155 471 -155Q345 -155 249 -104T99 43T45 270Q45 409 98 507T246 657T470 708Q604 708 697 654T836 510T883 310Q883 232 858 174T787 86T684 55Q631 55 601 79T564 148Q541 113 507 93T428 73Q370 73 328 101T264 178T242 283Q242 340 264 387T327 461T426 489Q467 489 501 472T558 423V478H660V190ZM498 165T528 198T558 282Q558 330 528 363T452 397Q405 397 376 364T346 282Q346 233 376 199T452 165Q498 165 528 198Z"  />
<glyph unicode="A" horiz-adv-x="724" d="M202 160L140 0H7L288 700H435L718 0H585L523 160H202ZM362 571L245 271H479L362 571Z"  />
<glyph unicode="B" horiz-adv-x="688" d="M644 322T644 192Q644 136 614 93T528 25T394 0H79V700H375Q447 700 501 679T585 618T615 528Q615 463 581 422T486 360Q644 322 644 192ZM365 407Q419 407 451 432T484 504Q484 542 454 565T368 589H209V407H365ZM445 111T479 137T513 209Q513 253 478 276T375 299H209V111H386Q445 111 479 137Z"  />
<glyph unicode="C" horiz-adv-x="722" d="M488 710T557 674T666 569L581 492Q550 541 504 565T398 590Q333 590 284 559T207 474T180 353Q180 282 210 226T293 138T413 106Q523 106 606 196L683 103Q579 -14 410 -14Q303 -14 220 33T90 164T43 352Q43 453 87 534T213 663T399 710Q488 710 557 674Z"  />
<glyph unicode="D" horiz-adv-x="760" d="M445 700T533 655T669 529T717 350Q717 252 669 172T533 46T329 0H79V700H329Q445 700 533 655ZM407 121T463 150T550 232T580 350Q580 417 550 469T463 550T329 579H209V121H329Q407 121 463 150Z"  />
<glyph unicode="E" horiz-adv-x="586" d="M209 579V413H510V292H209V121H556V0H79V700H535V579H209Z"  />
<glyph unicode="F" horiz-adv-x="563" d="M209 579V402H510V281H209V0H79V700H535V579H209Z"  />
<glyph unicode="G" horiz-adv-x="729" d="M689 91Q635 43 563 15T407 -14Q299 -14 216 33T88 164T43 350Q43 449 88 531T216 662T403 710Q491 710 561 674T671 569L586 492Q555 540 508 565T402 590Q338 590 288 558T209 471T180 351Q180 280 208 224T289 137T412 106Q492 106 560 148V333H689V91Z"  />
<glyph unicode="H" horiz-adv-x="745" d="M536 0V291H209V0H79V700H209V413H536V700H666V0H536Z"  />
<glyph unicode="I" horiz-adv-x="289" d="M79 0V700H209V0H79Z"  />
<glyph unicode="J" horiz-adv-x="572" d="M493 126T431 58T261 -10Q175 -10 112 34T16 152L125 209Q151 157 181 134T255 110Q306 110 334 144T363 247V700H493V254Q493 126 431 58Z"  />
<glyph unicode="K" horiz-adv-x="678" d="M209 232V0H79V700H209V385L493 700H655L370 401L685 0H523L281 307L209 232Z"  />
<glyph unicode="L" horiz-adv-x="556" d="M552 0H79V700H209V121H552V0Z"  />
<glyph unicode="M" horiz-adv-x="876" d="M797 0H667V480L466 120H409L209 480V0H79V700H218L437 310L657 700H797V0Z"  />
<glyph unicode="N" horiz-adv-x="762" d="M682 0H570L204 508V0H79V700H201L557 205V700H682V0Z"  />
<glyph unicode="O" horiz-adv-x="808" d="M510 712T592 664T720 534T766 352Q766 252 720 169T591 37T404 -12Q299 -12 217 36T89 167T43 349Q43 449 89 532T218 663T406 712Q510 712 592 664ZM340 592T289 560T209 473T180 352Q180 284 209 229T290 141T406 108Q469 108 520 140T600 227T629 349Q629 416 600 472T520 560T404 592Q340 592 289 560Z"  />
<glyph unicode="P" horiz-adv-x="661" d="M483 700T554 643T626 474Q626 365 552 305T357 245H209V0H79V700H352Q483 700 554 643ZM414 356T452 386T490 473Q490 531 453 560T344 589H209V356H345Q414 356 452 386Z"  />
<glyph unicode="Q" horiz-adv-x="823" d="M621 56Q528 -12 404 -12Q299 -12 217 36T89 167T43 349Q43 449 89 532T218 663T406 712Q510 712 592 664T720 534T766 352Q766 288 747 231T692 126L780 51L728 -9L621 56ZM180 284T209 229T290 141T406 108Q468 108 521 140L419 230L490 307L593 214Q629 275 629 349Q629 416 600 472T520 560T404 592Q340 592 289 560T209 473T180 352Q180 284 209 229Z"  />
<glyph unicode="R" horiz-adv-x="677" d="M209 260V0H79V700H358Q484 700 554 644T625 486Q625 407 581 352T464 273L672 0H521L325 260H209ZM361 371Q421 371 455 401T489 486Q489 534 454 561T355 589H209V371H361Z"  />
<glyph unicode="S" horiz-adv-x="618" d="M391 709T463 675T564 560L450 510Q436 550 398 574T305 598Q251 598 220 575T189 512Q189 485 205 469T252 442T349 411Q463 379 520 332T578 198Q578 139 546 91T454 14T316 -14Q107 -14 28 140L135 201Q189 98 323 98Q383 98 417 124T451 194Q451 231 419 250T310 291Q186 323 124 372T62 511Q62 579 97 623T188 688T308 709Q391 709 463 675Z"  />
<glyph unicode="T" horiz-adv-x="531" d="M331 579V0H201V579H3V700H529V579H331Z"  />
<glyph unicode="U" horiz-adv-x="758" d="M682 157T602 74T378 -10Q236 -10 156 72T75 311V700H205V322Q205 221 250 166T381 110Q464 110 508 162T552 317V700H682V318Q682 157 602 74Z"  />
<glyph unicode="V" horiz-adv-x="693" d="M413 0H280L6 700H141L347 146L554 700H687L413 0Z"  />
<glyph unicode="W" horiz-adv-x="932" d="M675 0H554L466 235L378 0H257L6 700H141L328 139L413 377L293 700H408L468 530L528 700H641L521 379L604 140L793 700H925L675 0Z"  />
<glyph unicode="X" horiz-adv-x="671" d="M532 0L334 269L139 0H-1L263 357L9 700H149L337 446L523 700H663L409 358L672 0H532Z"  />
<glyph unicode="Y" horiz-adv-x="674" d="M402 289V0H272V288L6 700H149L337 386L528 700H668L402 289Z"  />
<glyph unicode="Z" horiz-adv-x="626" d="M198 121H606V0H21V103L429 579H38V700H606V598L198 121Z"  />
<glyph unicode="[" horiz-adv-x="307" d="M181 622V-92H294V-200H60V730H294V622H181Z"  />
<glyph unicode="\" horiz-adv-x="403" d="M310 -163L0 730H123L433 -163H310Z"  />
<glyph unicode="]" horiz-adv-x="307" d="M13 -200V-92H126V622H13V730H247V-200H13Z"  />
<glyph unicode="^" horiz-adv-x="446" d="M223 597L149 442H23L161 700H285L423 442H298L223 597Z"  />
<glyph unicode="_" horiz-adv-x="510" d="M0 -193V-90H510V-193H0Z"  />
<glyph unicode="`" horiz-adv-x="293" d="M204 574L30 754L105 819L263 628L204 574Z"  />
<glyph unicode="a" horiz-adv-x="568" d="M380 522T440 462T501 302V0H402L389 66Q359 29 314 8T213 -13Q137 -13 89 22T40 128Q40 193 75 229T183 279T379 295V303Q379 359 346 391T249 423Q207 423 179 409T135 363L60 423Q85 477 136 499T261 522Q380 522 440 462ZM299 68T335 95T379 167V227Q272 228 216 211T160 138Q160 105 182 87T247 68Q299 68 335 95Z"  />
<glyph unicode="b" horiz-adv-x="626" d="M427 523T478 488T557 392T585 259Q585 184 556 123T475 26T355 -10Q301 -10 259 14T189 84V0H67V730H189V429Q217 475 260 499T359 523Q427 523 478 488ZM361 95T391 116T438 176T455 261Q455 329 419 374T325 419Q287 419 256 398T207 340T189 258Q189 211 206 174T254 116T323 95Q361 95 391 116Z"  />
<glyph unicode="c" horiz-adv-x="539" d="M376 523T430 496T518 421L409 364Q368 419 303 419Q243 419 207 373T170 256Q170 185 207 140T308 95Q339 95 367 107T416 138L520 81Q486 40 431 15T309 -10Q227 -10 166 24T73 119T40 255Q40 332 72 393T165 488T305 523Q376 523 430 496Z"  />
<glyph unicode="d" horiz-adv-x="626" d="M558 0H436V82Q410 38 368 14T273 -10Q205 -10 152 25T70 122T40 259Q40 331 68 391T149 487T271 523Q325 523 367 501T436 434V730H558V0ZM340 95T370 116T418 174T436 258Q436 303 419 340T370 398T301 419Q244 419 207 373T170 258Q170 212 187 175T235 116T302 95Q340 95 370 116Z"  />
<glyph unicode="e" horiz-adv-x="566" d="M525 234T524 221H177Q185 155 221 123T326 91Q364 91 399 101T462 127L501 37Q468 16 419 3T317 -10Q178 -10 109 63T40 254Q40 335 70 396T157 490T288 523Q363 523 416 489T497 394T525 257Q525 234 524 221ZM390 351T364 387T287 423Q240 423 211 390T176 289H394Q390 351 364 387Z"  />
<glyph unicode="f" horiz-adv-x="386" d="M376 509V407H209V0H87V405L15 408V499L87 509V555Q87 642 132 688T258 735Q341 735 388 690L337 609Q312 632 279 632Q209 632 209 543V509H376Z"  />
<glyph unicode="g" horiz-adv-x="626" d="M558 63Q558 -62 493 -136T297 -210Q234 -210 179 -192T82 -137L135 -52Q204 -108 290 -108Q443 -108 441 58L440 100Q41</font>
</defs>
</svg>
